Cannot play mp4 video with directshow filters

Talk about Jaangle. If you liked it... Why not... What's the future, etc

Moderator: outcast1000

Cannot play mp4 video with directshow filters

Postby jawadahmed » 02 Dec 2010, 15:42

I have the right directshow filters (windows media player can play these files fine) but jaangle cannot play mp4 videos, only audio is played.
for example one of the video information is as
Format : MPEG-4
Format profile : Base Media / Version 2
Codec ID : mp42
Overall bit rate : 3 636 Kbps
Video
Format : AVC
Format/Info : Advanced Video Codec
Codec ID/Info : Advanced Video Coding
Duration : 3mn 53s
Bit rate mode : Variable
Bit rate : 3 508 Kbps
Maximum bit rate : 4 964 Kbps
Width : 1 920 pixels
Height : 1 080 pixels
Display aspect ratio : 16:9
Frame rate mode : Constant
Frame rate : 25.000 fps
Bit depth : 8 bits
Scan type : Progressive
Bits/(Pixel*Frame) : 0.068
Stream size : 97.6 MiB (96%)
Audio
ID : 1
Format : AAC
Format/Info : Advanced Audio Codec
Bit rate mode : Variable
Bit rate : 125 Kbps
Maximum bit rate : 152 Kbps
Channel(s) : 2 channels
Channel positions : Front: L R
Sampling rate : 44.1 KHz
Compression mode : Lossy
Stream size : 3.49 MiB (3%)

So, any idea how can i make jaangle play the video?
jawadahmed
 
Posts: 8
Joined: 04 Oct 2009, 11:01

Re: Cannot play mp4 video with directshow filters

Postby outcast1000 » 02 Dec 2010, 22:00

Try this:
Close jaangle
Go to the Program Files/Jaangle directory
Rename
"bass_aac.dll" to
"bass_aac.dll.dis"
Start jaangle and try to play the file.
Tell me if it works.
User avatar
outcast1000
Site Admin
 
Posts: 1240
Joined: 06 Mar 2006, 01:35

Re: Cannot play mp4 video with directshow filters

Postby GrandMelenas » 04 Dec 2010, 16:42

For me, before the rename of the DLL I was not able to read the majority of MP4 files. After the rename, I can read the majority, not everyone.
User avatar
GrandMelenas
Guru
 
Posts: 113
Joined: 22 Oct 2008, 17:33
Location: Québec

Re: Cannot play mp4 video with directshow filters

Postby jawadahmed » 05 May 2012, 19:32

Thanks outcast1000. After renaming the DLL, i can play some of the mp4 videos but not all. Also the music icon in Jaangle for MP4 video is just like audio (green icon).
Can Jaangle detect the MP4 as videos?
jawadahmed
 
Posts: 8
Joined: 04 Oct 2009, 11:01

Re: Cannot play mp4 video with directshow filters

Postby outcast » 14 Jan 2013, 10:54

I dont know what directshow filters is, my other player can play MP4 file just fine, and I have tried the file rename as outcast1000 suggested, but Jaangle still cant read all MP4 file as video.
outcast
 
Posts: 2
Joined: 14 Jan 2013, 10:44


Return to General

Who is online

Users browsing this forum: Google [Bot] and 1 guest

cron